#TITLE:.;
#SUBTITLE:海鮮市場シリーズ (2013);
#ARTIST:.;
#TITLETRANSLIT:;
#SUBTITLETRANSLIT:;
#ARTISTTRANSLIT:;
#GENRE:utau utane uta sm21783669 kurage クラゲ jellyfish jpop pop japanese miphather;
#CREDIT:Mipha;
#MUSIC:audiocut.mp3;
#BANNER:nps.png;
#BACKGROUND:dot.png;
#CDTITLE:cdtitle.png;
#SAMPLESTART:113.924;
#SAMPLELENGTH:20.000;
#SELECTABLE:YES;
#OFFSET:1.570;
#BPMS:0.000=135.000;
#STOPS:;
#BGCHANGES:;
#FGCHANGES:;
//--------------- dance-single - Mipha ----------------
#NOTES:
     dance-single:
     Mipha:
     Challenge:
     14:
     0,0,0,0,0:
0000
0000
0000
0000
,
1001
0000
0001
0000
,
0010
0000
0010
0000
,
0100
0000
0100
0000
,
1000
0000
1000
0100
,
0011
0010
0011
0010
,
1100
0100
1100
0100
,
0101
0010
1010
0100
0101
0010
1010
0100
,
0101
0000
0000
0000
0010
0000
0000
0000
1001
0000
0000
0000
0101
0000
0000
0000
0011
0000
0000
0000
1000
0001
0100
0010
1001
0000
0100
0000
1010
0000
0100
0000
,
0011
0000
0010
0000
1001
0000
0010
1000
0110
0000
1000
0001
1010
0000
0001
0100
,
0011
0000
0100
0001
0110
0000
1000
0001
1100
0000
0010
1000
0110
0000
0100
0010
,
1001
0000
0010
1000
0110
0000
1000
0001
1010
0000
0100
1000
0011
0000
0010
1000
,
0101
0000
0001
0010
1100
0000
0010
1000
0101
0000
0010
0100
1001
0000
0010
0001
,
1100
0000
0100
0001
1010
0000
1000
0001
0110
0000
0010
1000
0101
0000
0010
0100
,
0011
0000
1000
0010
0101
0000
0001
1000
0110
0000
0100
0001
1010
0000
0010
0001
,
1100
0000
0010
1000
0101
0000
0010
0100
0011
0000
1000
0010
0101
0000
0100
0001
,
1010
0000
0000
1100
0000
0000
0011
0000
0110
0000
1000
0001
1010
0000
0010
0100
,
1001
0100
0010
1000
0011
0100
0001
0100
1010
0100
0010
0001
1100
0001
0010
1000
,
0110
0001
1000
0010
1100
0010
0100
0001
1010
0100
0001
1000
0011
1000
0010
0100
,
1001
0100
0010
1000
0101
0010
0001
0100
1010
0100
0010
0001
1100
0001
0010
1000
,
0110
0001
0100
0010
1001
0010
0100
0001
1010
0100
1000
0001
1100
0010
0100
0001
,
1010
0100
0010
1000
0101
0010
0001
0010
1100
0001
1000
0010
1001
0100
1000
0100
,
0011
1000
0001
1000
0101
0010
0100
0010
1001
0100
0001
1000
0011
0100
0010
0100
,
1001
0010
1000
0010
0101
1000
0001
1000
0110
0001
0100
0001
1010
0001
0010
0100
,
1001
0000
0000
0100
0000
0000
0010
0100
0010
0101
0000
0000
1010
0000
0000
0101
0010
0100
1010
0000
0000
0101
0000
0000
,
1011
0000
0001
0100
0011
0000
1000
0001
1010
0000
0100
0001
0110
0000
0001
1000
,
0011
0000
0000
0000
0100
0000
0011
0000
1100
0000
0000
0000
0100
0000
0000
0000
0011
0000
0100
0000
0010
0000
1000
0100
0011
0000
0000
0000
0100
0000
0000
0000
,
1001
0000
0100
0001
1010
0000
0100
0001
0110
0000
0010
1000
0101
0000
0010
1000
,
0110
0000
0000
0000
0100
0000
0001
0000
1010
0000
0000
0000
0001
0000
0100
0010
0001
0000
0000
0000
0100
0000
0001
0000
1100
0000
0010
0100
1000
0000
0001
0000
,
1010
0000
0010
1000
0110
0000
0100
0001
1010
0000
1000
0001
0110
0000
0010
1000
,
0101
0000
0100
0001
0110
0000
0001
1000
0011
0000
0100
0010
0101
0000
0010
1000
,
0110
0000
1000
0001
0110
0000
0100
0001
1010
0100
0001
0100
0011
0000
1000
0010
,
0101
0000
0000
0000
0000
0000
0010
0000
0000
0100
0000
0000
1001
0000
0000
0000
0100
0000
1000
0000
0000
0000
0000
0000
0100
0000
0000
0000
0000
0000
1000
0000
0000
0010
0000
0000
0101
0000
0000
0000
0000
0000
0010
0000
0000
0100
0000
0000
,
1011
0000
0001
0100
0011
0000
1000
0001
1010
0000
0100
0001
0110
0000
0001
1000
,
0011
0000
0000
0000
0100
0000
0011
0000
1100
0000
0000
0000
0100
0000
0000
0000
0011
0000
0100
0000
0010
0000
1000
0100
0011
0000
0000
0000
0100
0000
0000
0000
,
1001
0000
0100
0001
1010
0000
0100
0001
0110
0000
0010
1000
0101
0000
0010
1000
,
0110
0000
0000
0000
0100
0000
0001
0000
1010
0000
0000
0000
0001
0000
0100
0010
0001
0000
0000
0000
0100
0000
0001
0000
1100
0000
0010
0100
1000
0000
0001
0000
,
1010
0000
0010
1000
0110
0000
0100
0001
1010
0000
1000
0001
0110
0000
0010
1000
,
0101
0000
0100
0001
0110
0000
0001
1000
0011
0000
0100
0010
0101
0000
0010
1000
,
0110
0000
1000
0001
0110
0000
0100
0001
1010
0100
0001
0100
0011
0000
1000
0010
,
0101
0000
0000
0000
0000
0000
0010
0000
0000
0100
0000
0000
1001
0000
0000
0000
0100
0000
1000
0000
0000
0000
0000
0000
0100
0000
0000
0000
0000
0000
1000
0000
0000
0010
0000
0000
0101
0000
0000
0000
0000
0000
0010
0000
0000
0100
0000
0000
,
1001
0000
0000
0000
0000
0000
0011
0000
1000
0100
0000
0000
1010
0000
0000
0100
0000
0000
1001
0000
0010
0000
0000
0100
,
0011
1000
0000
0000
0000
0010
1001
0000
0100
0000
0000
0010
1100
0000
0001
1000
0000
0010
0101
0000
1000
0000
0000
0000
,
0011
0000
0000
0100
0000
0001
1010
0000
0000
0100
0000
0010
1100
0000
1000
0001
0000
0100
1010
0000
0001
0100
0000
0010
,
1100
0000
0001
0000
0000
1000
0101
0000
0010
0001
0000
0010
1100
0000
0010
1000
0000
0001
1010
0000
0000
0100
0000
0000
,
0011
0000
0000
0000
0000
0000
0000
0000
1000
0000
0100
0000
0001
0000
0000
0000
0000
0000
0000
0000
0000
0000
0000
0000
0010
0000
0000
0001
0000
0000
1000
0000
0000
0100
0000
0000
0010
0000
0000
0000
0000
0000
0000
0000
0001
0000
0000
0000
1100
0000
0000
0000
0000
0000
0000
0000
0010
0000
0000
0000
0100
0000
0000
0000
0000
0000
0000
0000
1000
0000
0000
0000
0101
0000
0000
0000
0000
0000
0000
0000
0000
0000
0000
0000
0010
0000
0000
0000
0000
0000
0000
0000
1000
0000
0000
0000
,
0110
0000
0001
0000
0000
0010
0101
0000
0000
1000
0000
0010
1100
0000
0010
1000
0000
0010
0101
0000
1000
0010
0000
0001
,
1100
0000
0000
0000
0000
0000
0000
0000
0000
0000
0010
0000
0000
0000
0000
0000
0000
0000
0000
0001
0000
0000
0000
0000
0000
0000
0000
0000
0000
0100
0000
0000
0000
0000
0000
0000
0000
0000
0000
0010
0000
0000
0000
0000
0000
0000
0000
0000
1001
0000
0000
0000
0000
0000
0000
0000
0000
0000
0000
0000
0100
0000
0000
0000
0000
0000
0000
0000
0000
0000
0000
0000
0010
0000
0000
0000
0000
0000
0000
0000
0000
0000
0000
0000
0001
0000
0000
0000
0000
0000
0000
0000
0000
0000
0000
0000
1100
0000
0000
0000
0000
0000
0000
0000
0000
0000
0010
0000
0000
0000
0000
0000
0000
0000
0000
0001
0000
0000
0000
0000
0000
0000
0000
0000
0000
1000
0000
0000
0000
0000
0000
0000
0000
0000
0000
0010
0000
0000
0000
0000
0000
0000
0000
0000
0101
0000
0000
0000
0000
0000
0000
0000
1000
0000
0000
0000
0000
0000
0000
0000
0010
0000
0000
0000
0000
0000
0000
0000
0100
0000
0000
0000
0000
0000
0000
0000
0001
0000
0000
0000
0000
0000
0000
0000
0010
0000
0000
0000
0000
0000
0000
0000
,
1100
0000
0000
0000
0000
0000
0000
0000
0100
0000
0000
0000
0000
0000
0000
0000
0010
0000
0000
0000
0000
0000
0000
0000
1001
0000
0000
0000
0000
0000
0010
0000
0000
0000
0000
0000
0100
0000
0000
0000
0000
0000
0001
0000
0000
0000
0000
0000
0110
0000
0000
0000
0000
0000
0000
0000
1000
0000
0000
0000
0001
0000
0000
0010
0000
0000
0100
0000
0000
1000
0000
0000
0011
0000
0000
0000
0000
0000
0000
0000
0100
0000
0000
0000
0001
0000
0000
0000
0010
0000
0000
0000
0100
0000
0000
0000
,
1011
0000
0000
0001
0100
0000
0000
0010
,
0100
0000
0000
0100
1000
0000
0100
0000
0010
0000
0000
0000
1000
0000
0100
0000
,
0010
0000
0100
0001
0010
0000
0001
0010
,
0100
0000
0010
1000
0100
0000
1000
0000
,
0100
0000
1000
0100
0010
0000
0001
0010
,
0100
0000
1000
0010
0100
0000
1000
0100
,
0010
0000
1001
0100
0010
0101
0010
0100
,
1001
0000
0000
0101
0000
0000
1100
0000
0011
0000
1000
0001
1010
0100
0010
0100
,
1011
0000
0000
1000
0100
0000
1000
0000
,
0010
0000
0100
1000
0001
0000
1010
1100
,
1011
0000
0010
0001
1010
0000
0100
1000
0011
0000
0100
0001
1010
0000
0010
1000
,
0101
0000
0000
0000
0000
0000
0010
0000
0100
0000
0010
0000
1001
0000
0000
0000
0000
0000
0100
0000
0000
0010
0000
0000
1100
0000
0000
0000
0000
0000
0100
0000
0000
0001
0000
0000
1010
0000
0000
0000
0000
0000
0001
0000
0000
0100
0000
0000
,
0011
0000
1000
0001
1010
0000
0001
1000
0110
0000
0010
1000
0101
0000
0010
1000
,
0110
0000
0100
0010
0101
0000
0001
0010
1100
0000
0010
0100
1010
0000
1000
0100
,
0011
0000
0001
0100
1010
0000
0100
0010
1100
0000
0001
0000
0010
0000
0100
0000
,
1001
0000
0000
0010
0000
0000
0100
0001
0100
1010
0000
0000
1100
0000
0000
0010
1000
0010
0101
0000
0000
0100
0001
0100
,
1011
0000
0001
0100
0011
0000
1000
0001
1010
0000
0100
0001
0110
0000
0001
1000
,
0011
0000
0000
0000
0100
0000
0011
0000
1100
0000
0000
0000
0100
0000
0000
0000
0011
0000
0100
0000
0010
0000
1000
0100
0011
0000
0000
0000
0100
0000
0000
0000
,
1001
0000
0100
0001
1010
0000
0100
0001
0110
0000
0010
1000
0101
0000
0010
1000
,
0110
0000
0000
0000
0100
0000
0001
0000
1010
0000
0000
0000
0001
0000
0100
0010
0001
0000
0000
0000
0100
0000
0001
0000
1100
0000
0010
0100
1000
0000
0001
0000
,
1010
0000
0010
1000
0110
0000
0100
0001
1010
0000
1000
0001
0110
0000
0010
1000
,
0101
0000
0100
0001
0110
0000
0001
1000
0011
0000
0100
0010
0101
0000
0010
1000
,
0110
0000
1000
0001
0110
0000
0100
0001
1010
0100
0001
0100
0011
0000
1000
0010
,
0101
0000
0000
0000
0000
0000
0010
0000
0000
0100
0000
0000
1001
0000
0000
0000
0100
0000
1000
0000
0000
0000
0000
0000
0100
0000
0000
0000
0000
0000
1000
0000
0000
0010
0000
0000
0101
0000
0000
0000
0000
0000
0010
0000
0000
0100
0000
0000
,
1011
0000
0001
0100
0011
0000
1000
0001
1010
0000
0100
0001
0110
0000
0001
1000
,
0011
0000
0000
0000
0100
0000
0011
0000
1100
0000
0000
0000
0100
0000
0000
0000
0011
0000
0100
0000
0010
0000
1000
0100
0011
0000
0000
0000
0100
0000
0000
0000
,
1001
0000
0100
0001
1010
0000
0100
0001
0110
0000
0010
1000
0101
0000
0010
1000
,
0110
0000
0000
0000
0100
0000
0001
0000
1010
0000
0000
0000
0001
0000
0100
0010
0001
0000
0000
0000
0100
0000
0001
0000
1100
0000
0010
0100
1000
0000
0001
0000
,
1010
0000
0010
1000
0110
0000
0100
0001
1010
0000
1000
0001
0110
0000
0010
1000
,
0101
0000
0100
0001
0110
0000
0001
1000
0011
0000
0100
0010
0101
0000
0010
1000
,
0110
0000
1000
0001
0110
0000
0100
0001
1010
0100
0001
0100
0011
0000
1000
0010
,
0101
0000
0000
0000
0000
0000
0010
0000
0000
0100
0000
0000
1001
0000
0000
0000
0100
0000
1000
0000
0000
0000
0000
0000
0100
0000
0000
0000
0000
0000
1000
0000
0000
0010
0000
0000
0101
0000
0000
0000
0000
0000
0010
0000
0000
0100
0000
0000
,
1011
0000
0001
0000
0101
1000
0010
1000
0110
0000
0010
1000
0101
0000
0001
0000
,
1100
0000
0100
0001
1010
0000
0100
1000
0011
0000
1000
1000
0101
0000
0010
0000
,
1100
0000
0010
1000
0101
0000
0001
1000
0110
0000
0100
0001
1010
0001
0100
1000
,
0011
0000
0010
1000
0101
0010
0100
1000
0011
0000
0100
0001
1010
0000
0100
1000
,
0011
0000
0010
1000
0101
0000
0010
0001
1100
0000
0010
0100
1010
1000
0001
0010
,
1100
0000
0001
1000
0101
0000
0010
0001
1100
0000
0010
1000
0101
0000
1000
0000
,
1100
0000
0010
1000
0101
0000
0010
0001
1100
0000
0010
1000
0101
0000
0010
0001
,
0110
0000
0001
1000
0101
0000
0010
0100
0011
0000
0000
0000
0000
0000
0000
0000
;
